Vishwaroopam 2 (2018) Telugu Ultra HD 4K - Untouched - AVC - Dolby ® 5.1 - Esubs-TMV

Vishwaroopam 2 (2018) Telugu Ultra HD 4K - Untouched - AVC - Dolby ® 5.1 - Esubs-TMV





Format                      : MPEG-4
Format profile              : Base Media / Version 2
Codec ID                    : mp42 (mp42/mp41)
File size                   : 6.39 GiB
Duration                    : 2 h 20 min
Overall bit rate            : 6 503 kb/s
Encoded date                : UTC 2018-09-06 03:28:42
Tagged date                 : UTC 2018-09-06 03:33:02
©TIM                        : 00:00:00:00
©TSC                        : 24
©TSZ                        : 1

Video
ID                          : 1
Format                      : AVC
Format/Info                 : Advanced Video Codec
Format profile              : [email protected]
Format settings, CABAC      : Yes
Format settings, RefFrames  : 4 frames
Format settings, GOP        : M=4, N=24
Codec ID                    : avc1
Codec ID/Info               : Advanced Video Coding
Duration                    : 2 h 20 min
Bit rate                    : 5 989 kb/s
Width                       : 1 920 pixels
Height                      : 1 080 pixels
Display aspect ratio        : 16:9
Frame rate mode             : Constant
Frame rate                  : 24.000 FPS
Color space                 : YUV
Chroma subsampling          : 4:2:0
Bit depth                   : 8 bits
Scan type                   : Progressive
Bits/(Pixel*Frame)          : 0.120
Stream size                 : 5.88 GiB (92%)
Language                    : English
Encoded date                : UTC 2018-09-06 03:28:42
Tagged date                 : UTC 2018-09-06 03:28:42
Color range                 : Limited
Color primaries             : BT.709
Transfer characteristics    : BT.709
Matrix coefficients         : BT.709

Audio
ID                          : 2
Format                      : AC-3
Format/Info                 : Audio Coding 3
Format settings, Endianness : Big
Codec ID                    : ac-3
Duration                    : 2 h 20 min
Source duration             : 2 h 20 min
Bit rate mode               : Constant
Bit rate                    : 512 kb/s
Channel(s)                  : 6 channels
Channel positions           : Front: L C R, Side: L R, LFE
Sampling rate               : 48.0 kHz
Frame rate                  : 31.250 FPS (1536 SPF)
Bit depth                   : 16 bits
Compression mode            : Lossy
Stream size                 : 515 MiB (8%)
Source stream size          : 515 MiB (8%)
Language                    : English
Service kind                : Complete Main
Encoded date                : UTC 2018-09-06 03:28:42
Tagged date                 : UTC 2018-09-06 03:28:42



SINGLE DIRECT FAST LINKS

http://www.heroupload.us/1a36a8d90f5350dc/Vishwaroopam.2.2018.Telugu.Ultra-HD.4K.AVC.DD5.1.ESub-TMV.mp4


1GB LINKS

http://www.heroupload.us/a65b91f2ae6470e4/Vishwaroopam.2.2018.Telugu.Ultra-HD.4K.AVC.DD5.1.ESub-TMV.part1.rar
http://www.heroupload.us/07ab158e0cacc226/Vishwaroopam.2.2018.Telugu.Ultra-HD.4K.AVC.DD5.1.ESub-TMV.part2.rar
http://www.heroupload.us/f565d77d2c0ef830/Vishwaroopam.2.2018.Telugu.Ultra-HD.4K.AVC.DD5.1.ESub-TMV.part3.rar
http://www.heroupload.us/b187835ba3d121ec/Vishwaroopam.2.2018.Telugu.Ultra-HD.4K.AVC.DD5.1.ESub-TMV.part4.rar
http://www.heroupload.us/1ccb172eec167850/Vishwaroopam.2.2018.Telugu.Ultra-HD.4K.AVC.DD5.1.ESub-TMV.part5.rar
http://www.heroupload.us/196afb195618c551/Vishwaroopam.2.2018.Telugu.Ultra-HD.4K.AVC.DD5.1.ESub-TMV.part6.rar
http://www.heroupload.us/b5b8291994593a9f/Vishwaroopam.2.2018.Telugu.Ultra-HD.4K.AVC.DD5.1.ESub-TMV.part7.rar
http://www.heroupload.us/5680044b6575787d/Vishwaroopam.2.2018.Telugu.Ultra-HD.4K.AVC.DD5.1.ESub-TMV.srt



http://filefloater.com/1KM6/Vishwaroopam.2.2018.Telugu.Ultra-HD.4K.AVC.DD5.1.ESub-TMV.part1.rar
http://filefloater.com/1KM7/Vishwaroopam.2.2018.Telugu.Ultra-HD.4K.AVC.DD5.1.ESub-TMV.part2.rar
http://filefloater.com/1KM8/Vishwaroopam.2.2018.Telugu.Ultra-HD.4K.AVC.DD5.1.ESub-TMV.part3.rar
http://filefloater.com/1KM9/Vishwaroopam.2.2018.Telugu.Ultra-HD.4K.AVC.DD5.1.ESub-TMV.part4.rar
http://filefloater.com/30OS/Vishwaroopam.2.2018.Telugu.Ultra-HD.4K.AVC.DD5.1.ESub-TMV.part5.rar
http://filefloater.com/30OT/Vishwaroopam.2.2018.Telugu.Ultra-HD.4K.AVC.DD5.1.ESub-TMV.part6.rar
http://filefloater.com/2AO0/Vishwaroopam.2.2018.Telugu.Ultra-HD.4K.AVC.DD5.1.ESub-TMV.part7.rar
http://filefloater.com/2AO1/Vishwaroopam.2.2018.Telugu.Ultra-HD.4K.AVC.DD5.1.ESub-TMV.srt


Buy Premium From My Links & Support Me
шаблоны для dle 11.2