Tholi Prema (2018) Telugu - 1080p - WEB-HD - AVC - AAC-TMV

Tholi Prema (2018) Telugu - 1080p - WEB-HD - AVC - AAC-TMV





Format                      : Matroska
Format version              : Version 4 / Version 2
File size                   : 5.24 GiB
Duration                    : 2 h 15 min
Overall bit rate            : 5 520 kb/s
Encoded date                : UTC 2018-08-04 16:10:16
Writing application         : mkvmerge v8.2.0 ('World of Adventure') 64bit
Writing library             : libebml v1.3.1 + libmatroska v1.4.2

Video
ID                          : 1
Format                      : AVC
Format/Info                 : Advanced Video Codec
Format profile              : [email protected]
Format settings, CABAC      : Yes
Format settings, RefFrames  : 4 frames
Codec ID                    : V_MPEG4/ISO/AVC
Duration                    : 2 h 15 min
Bit rate                    : 5 324 kb/s
Width                       : 1 920 pixels
Height                      : 1 080 pixels
Display aspect ratio        : 16:9
Frame rate mode             : Constant
Frame rate                  : 60.000 FPS
Color space                 : YUV
Chroma subsampling          : 4:2:0
Bit depth                   : 8 bits
Scan type                   : Progressive
Bits/(Pixel*Frame)          : 0.043
Stream size                 : 5.05 GiB (96%)
Writing library             : x264 core 155 r2901 7d0ff22
Encoding settings           : cabac=1 / ref=3 / deblock=1:0:0 / analyse=0x3:0x113 / me=hex / subme=7 / psy=1 / psy_rd=1.00:0.00 / mixed_ref=1 / me_range=16 / chroma_me=1 / trellis=1 / 8x8dct=1 / cqm=0 / deadzone=21,11 / fast_pskip=1 / chroma_qp_offset=-2 / threads=34 / lookahead_threads=5 / sliced_threads=0 / nr=0 / decimate=1 / interlaced=0 / bluray_compat=0 / constrained_intra=0 / bframes=3 / b_pyramid=2 / b_adapt=1 / b_bias=0 / direct=1 / weightb=1 / open_gop=0 / weightp=2 / keyint=600 / keyint_min=60 / scenecut=40 / intra_refresh=0 / rc_lookahead=40 / rc=2pass / mbtree=1 / bitrate=5324 / ratetol=1.0 / qcomp=0.60 / qpmin=0 / qpmax=69 / qpstep=4 / cplxblur=20.0 / qblur=0.5 / ip_ratio=1.40 / aq=1:1.00
Language                    : Telugu
Default                     : Yes
Forced                      : No

Audio
ID                          : 2
Format                      : AAC
Format/Info                 : Advanced Audio Codec
Format profile              : LC
Codec ID                    : A_AAC
Duration                    : 2 h 15 min
Bit rate                    : 192 kb/s
Channel(s)                  : 2 channels
Channel positions           : Front: L R
Sampling rate               : 44.1 kHz
Frame rate                  : 43.066 FPS (1024 SPF)
Compression mode            : Lossy
Stream size                 : 190 MiB (4%)
Language                    : Telugu
Default                     : Yes
Forced                      : No




SINGLE DIRECT FAST LINKS

http://www.heroupload.us/1d0be7b399513dce/Tholi.Prema.2018.Telugu.WEB-HD.1080p.UNTOUCHED.AVC.AAC-TMV.mkv


1GB LINKS

http://www.heroupload.us/3b845e6417abadc0/Tholi.Prema.2018.Telugu.WEB-HD.1080p.UNTOUCHED.AVC.AAC-TMV.part1.rar
http://www.heroupload.us/c23385056a366906/Tholi.Prema.2018.Telugu.WEB-HD.1080p.UNTOUCHED.AVC.AAC-TMV.part2.rar
http://www.heroupload.us/190907fdd7d62c89/Tholi.Prema.2018.Telugu.WEB-HD.1080p.UNTOUCHED.AVC.AAC-TMV.part3.rar
http://www.heroupload.us/171b22082fb6ed86/Tholi.Prema.2018.Telugu.WEB-HD.1080p.UNTOUCHED.AVC.AAC-TMV.part4.rar
http://www.heroupload.us/9b75d1cf8b6ab5a3/Tholi.Prema.2018.Telugu.WEB-HD.1080p.UNTOUCHED.AVC.AAC-TMV.part5.rar
http://www.heroupload.us/0dd3aab5b7ba502b/Tholi.Prema.2018.Telugu.WEB-HD.1080p.UNTOUCHED.AVC.AAC-TMV.part6.rar



http://filefloater.com/1K5D/Tholi.Prema.2018.Telugu.WEB-HD.1080p.UNTOUCHED.AVC.AAC-TMV.part1.rar
http://filefloater.com/1K5E/Tholi.Prema.2018.Telugu.WEB-HD.1080p.UNTOUCHED.AVC.AAC-TMV.part2.rar
http://filefloater.com/1K5F/Tholi.Prema.2018.Telugu.WEB-HD.1080p.UNTOUCHED.AVC.AAC-TMV.part3.rar
http://filefloater.com/1K5G/Tholi.Prema.2018.Telugu.WEB-HD.1080p.UNTOUCHED.AVC.AAC-TMV.part4.rar
http://filefloater.com/1K5H/Tholi.Prema.2018.Telugu.WEB-HD.1080p.UNTOUCHED.AVC.AAC-TMV.part5.rar
http://filefloater.com/1K5I/Tholi.Prema.2018.Telugu.WEB-HD.1080p.UNTOUCHED.AVC.AAC-TMV.part6.rar





Buy Premium From My Links & Support Me
шаблоны для dle 11.2