Lakshmi (2018) Tamil - 1080p - WEB-HD - AVC - DD5.1 - ESubs-MTR

Lakshmi (2018) Tamil - 1080p - WEB-HD - AVC - DD5.1 - ESubs-MTR





Format                      : MPEG-TS
File size                   : 7.82 GiB
Duration                    : 2 h 1 min
Overall bit rate mode       : Variable
Overall bit rate            : 9 183 kb/s
FileExtension_Invalid       : ts m2t m2s m4t m4s tmf ts tp trp ty

Video
ID                          : 481 (0x1E1)
Menu ID                     : 1 (0x1)
Format                      : AVC
Format/Info                 : Advanced Video Codec
Format profile              : [email protected]
Format settings, CABAC      : Yes
Format settings, RefFrames  : 3 frames
Codec ID                    : 27
Duration                    : 2 h 1 min
Bit rate mode               : Constant
Bit rate                    : 8 500 kb/s
Maximum bit rate            : 8 970 kb/s
Width                       : 1 920 pixels
Height                      : 1 080 pixels
Display aspect ratio        : 16:9
Frame rate                  : 29.970 (30000/1001) FPS
Standard                    : PAL
Color space                 : YUV
Chroma subsampling          : 4:2:0
Bit depth                   : 8 bits
Scan type                   : Progressive
Bits/(Pixel*Frame)          : 0.137
Stream size                 : 7.05 GiB (90%)
Color range                 : Limited
Color primaries             : BT.709
Transfer characteristics    : BT.709
Matrix coefficients         : BT.709

Audio
ID                          : 482 (0x1E2)
Menu ID                     : 1 (0x1)
Format                      : AC-3
Format/Info                 : Audio Coding 3
Format settings, Endianness : Big
Codec ID                    : 129
Duration                    : 2 h 1 min
Bit rate mode               : Constant
Bit rate                    : 448 kb/s
Maximum bit rate            : 616 kb/s
Channel(s)                  : 6 channels
Channel positions           : Front: L C R, Side: L R, LFE
Sampling rate               : 48.0 kHz
Frame rate                  : 31.250 FPS (1536 SPF)
Bit depth                   : 16 bits
Compression mode            : Lossy
Stream size                 : 390 MiB (5%)
Service kind                : Complete Main

Menu
ID                          : 480 (0x1E0)
Menu ID                     : 1 (0x1)
Duration                    : 2 h 1 min
List                        : 481 (0x1E1) (AVC) / 482 (0x1E2) (AC-3)
Maximum bit rate            : 9586400





SINGLE DIRECT FAST LINKS

http://www.heroupload.us/68c2dedd7593cc42/Lakshmi.2018.1080p.HD.AVC.DD5.1.ESubs.Tamil-MTR.mp4


1GB LINKS

http://www.heroupload.us/0797f61ea82777a5/Lakshmi.2018.1080p.HD.AVC.DD5.1.ESubs.Tamil-MTR.part1.rar
http://www.heroupload.us/a6ec5cdf350f705f/Lakshmi.2018.1080p.HD.AVC.DD5.1.ESubs.Tamil-MTR.part2.rar
http://www.heroupload.us/acafc37515fb3956/Lakshmi.2018.1080p.HD.AVC.DD5.1.ESubs.Tamil-MTR.part3.rar
http://www.heroupload.us/0e8c50031e6601b3/Lakshmi.2018.1080p.HD.AVC.DD5.1.ESubs.Tamil-MTR.part4.rar
http://www.heroupload.us/62b5b96f83f03432/Lakshmi.2018.1080p.HD.AVC.DD5.1.ESubs.Tamil-MTR.part5.rar
http://www.heroupload.us/5883430cda39410d/Lakshmi.2018.1080p.HD.AVC.DD5.1.ESubs.Tamil-MTR.part6.rar
http://www.heroupload.us/0643d3a146d56363/Lakshmi.2018.1080p.HD.AVC.DD5.1.ESubs.Tamil-MTR.part7.rar
http://www.heroupload.us/95c9ff974ace603d/Lakshmi.2018.1080p.HD.AVC.DD5.1.ESubs.Tamil-MTR.part8.rar
http://www.heroupload.us/0b4860a4f80c9b4e/Lakshmi.2018.1080p.HD.AVC.DD5.1.ESubs.Tamil-MTR.srt



http://filefloater.com/1KG4/Lakshmi.2018.1080p.HD.AVC.DD5.1.ESubs.Tamil-MTR.part1.rar
http://filefloater.com/1KG5/Lakshmi.2018.1080p.HD.AVC.DD5.1.ESubs.Tamil-MTR.part2.rar
http://filefloater.com/1KG6/Lakshmi.2018.1080p.HD.AVC.DD5.1.ESubs.Tamil-MTR.part3.rar
http://filefloater.com/1KG7/Lakshmi.2018.1080p.HD.AVC.DD5.1.ESubs.Tamil-MTR.part4.rar
http://filefloater.com/1KG8/Lakshmi.2018.1080p.HD.AVC.DD5.1.ESubs.Tamil-MTR.part5.rar
http://filefloater.com/1KG9/Lakshmi.2018.1080p.HD.AVC.DD5.1.ESubs.Tamil-MTR.part6.rar
http://filefloater.com/30IS/Lakshmi.2018.1080p.HD.AVC.DD5.1.ESubs.Tamil-MTR.part7.rar
http://filefloater.com/30IT/Lakshmi.2018.1080p.HD.AVC.DD5.1.ESubs.Tamil-MTR.part8.rar
http://filefloater.com/2AI0/Lakshmi.2018.1080p.HD.AVC.DD5.1.ESubs.Tamil-MTR.srt


Buy Premium From My Links & Support Me
шаблоны для dle 11.2