The Dangerous Hunter (Kakki Sattai) (2018) Hindi - 720p - WEB-HD - AVC - AAC-RG

The Dangerous Hunter (Kakki Sattai) (2018) Hindi - 720p - WEB-HD - AVC - AAC-RG





Format                      : MPEG-4
Format profile              : Base Media
Codec ID                    : isom (isom/iso2/avc1/mp41)
File size                   : 1.39 GiB
Duration                    : 2 h 10 min
Overall bit rate            : 1 528 kb/s
Writing application         : Lavf58.9.100

Video
ID                          : 1
Format                      : AVC
Format/Info                 : Advanced Video Codec
Format profile              : [email protected]
Format settings, CABAC      : Yes
Format settings, RefFrames  : 3 frames
Codec ID                    : avc1
Codec ID/Info               : Advanced Video Coding
Duration                    : 2 h 10 min
Bit rate                    : 1 394 kb/s
Width                       : 1 920 pixels
Height                      : 1 080 pixels
Display aspect ratio        : 16:9
Frame rate mode             : Constant
Frame rate                  : 30.000 FPS
Color space                 : YUV
Chroma subsampling          : 4:2:0
Bit depth                   : 8 bits
Scan type                   : Progressive
Bits/(Pixel*Frame)          : 0.022
Stream size                 : 1.27 GiB (91%)
Color range                 : Limited
Color primaries             : BT.709
Transfer characteristics    : BT.709
Matrix coefficients         : BT.709

Audio
ID                          : 2
Format                      : AAC
Format/Info                 : Advanced Audio Codec
Format profile              : LC
Codec ID                    : 40
Duration                    : 2 h 10 min
Bit rate mode               : Constant
Bit rate                    : 126 kb/s
Channel(s)                  : 2 channels
Channel positions           : Front: L R
Sampling rate               : 44.1 kHz
Frame rate                  : 43.066 FPS (1024 SPF)
Compression mode            : Lossy
Stream size                 : 117 MiB (8%)
Language                    : English
Default                     : Yes
Alternate group             : 1




SINGLE DIRECT FAST LINKS


http://www.heroupload.us/9c54d76ac12e09b5/The.Dangerous.Hunter.Kaaki.Sattai.2018.Hindi.720p.WEB-HD.AVC.AAC-RG.mp4



http://filefloater.com/2AO8/The.Dangerous.Hunter.Kaaki.Sattai.2018.Hindi.720p.WEB-HD.AVC.AAC-RG.mp4


Buy Premium From My Links & Support Me
шаблоны для dle 11.2