MLA Ka Power (MLA) (2018) Hindi - 1080p - WEB-HD - AVC - AAC-Aditya

MLA Ka Power (MLA) (2018) Hindi - 1080p - WEB-HD - AVC - AAC-Aditya





Format                      : MPEG-4
Format profile              : Base Media
Codec ID                    : isom (isom/iso2/avc1/mp41)
File size                   : 2.58 GiB
Duration                    : 2 h 6 min
Overall bit rate            : 2 932 kb/s
Writing application         : Lavf58.9.100

Video
ID                          : 1
Format                      : AVC
Format/Info                 : Advanced Video Codec
Format profile              : [email protected]
Format settings, CABAC      : Yes
Format settings, RefFrames  : 2 frames
Codec ID                    : avc1
Codec ID/Info               : Advanced Video Coding
Duration                    : 2 h 6 min
Bit rate                    : 2 801 kb/s
Width                       : 1 920 pixels
Height                      : 1 080 pixels
Display aspect ratio        : 16:9
Frame rate mode             : Constant
Frame rate                  : 24.000 FPS
Color space                 : YUV
Chroma subsampling          : 4:2:0
Bit depth                   : 8 bits
Scan type                   : Progressive
Bits/(Pixel*Frame)          : 0.056
Stream size                 : 2.47 GiB (96%)
Color range                 : Limited
Color primaries             : BT.709
Transfer characteristics    : BT.709
Matrix coefficients         : BT.709

Audio
ID                          : 2
Format                      : AAC
Format/Info                 : Advanced Audio Codec
Format profile              : LC
Codec ID                    : 40
Duration                    : 2 h 6 min
Bit rate mode               : Constant
Bit rate                    : 126 kb/s
Channel(s)                  : 2 channels
Channel positions           : Front: L R
Sampling rate               : 44.1 kHz
Frame rate                  : 43.066 FPS (1024 SPF)
Compression mode            : Lossy
Stream size                 : 113 MiB (4%)
Language                    : English
Default                     : Yes
Alternate group             : 1




SINGLE DIRECT FAST LINKS
http://www.heroupload.us/21a21bbcfc94c033/MLA.Ka.Power.MLA.2018.Hindi.1080p.WEB-HD.AVC.AAC-Aditya.mp4


http://filefloater.com/2AO9/MLA.Ka.Power.MLA.2018.Hindi.1080p.WEB-HD.AVC.AAC-Aditya.mp4

700MB LINKS

http://www.heroupload.us/e9f3f3e669cf61fd/MLA.Ka.Power.MLA.2018.Hindi.1080p.WEB-HD.AVC.AAC-Aditya.part1.rar
http://www.heroupload.us/365658d16367d737/MLA.Ka.Power.MLA.2018.Hindi.1080p.WEB-HD.AVC.AAC-Aditya.part2.rar
http://www.heroupload.us/a60ecc479a822a77/MLA.Ka.Power.MLA.2018.Hindi.1080p.WEB-HD.AVC.AAC-Aditya.part3.rar
http://www.heroupload.us/fe069deec570aabf/MLA.Ka.Power.MLA.2018.Hindi.1080p.WEB-HD.AVC.AAC-Aditya.part4.rar



http://filefloater.com/2AO4/MLA.Ka.Power.MLA.2018.Hindi.1080p.WEB-HD.AVC.AAC-Aditya.part1.rar
http://filefloater.com/2AO5/MLA.Ka.Power.MLA.2018.Hindi.1080p.WEB-HD.AVC.AAC-Aditya.part2.rar
http://filefloater.com/2AO6/MLA.Ka.Power.MLA.2018.Hindi.1080p.WEB-HD.AVC.AAC-Aditya.part3.rar
http://filefloater.com/2AO7/MLA.Ka.Power.MLA.2018.Hindi.1080p.WEB-HD.AVC.AAC-Aditya.part4.rar


Buy Premium From My Links & Support Me
шаблоны для dle 11.2