MLA Ka Power (MLA) (2018) Hindi - 720p - HDTVRip - x264 - AAC-MCR

MLA Ka Power (MLA) (2018) Hindi - 720p - HDTVRip - x264 - AAC-MCR




Format                      : Matroska
Format version              : Version 4 / Version 2
File size                   : 1.02 GiB
Duration                    : 1 h 49 min
Overall bit rate            : 1 330 kb/s
Encoded date                : UTC 2018-07-29 13:58:20
Writing application         : mkvmerge v23.0.0 ('The Bride Said No') 64-bit
Writing library             : libebml v1.3.6 + libmatroska v1.4.9

Video
ID                          : 1
Format                      : AVC
Format/Info                 : Advanced Video Codec
Format profile              : [email protected]
Format settings, CABAC      : Yes
Format settings, RefFrames  : 2 frames
Codec ID                    : V_MPEG4/ISO/AVC
Duration                    : 1 h 49 min
Bit rate                    : 1 130 kb/s
Width                       : 1 280 pixels
Height                      : 544 pixels
Display aspect ratio        : 2.35:1
Frame rate mode             : Constant
Frame rate                  : 25.000 FPS
Color space                 : YUV
Chroma subsampling          : 4:2:0
Bit depth                   : 8 bits
Scan type                   : Progressive
Bits/(Pixel*Frame)          : 0.065
Stream size                 : 885 MiB (85%)
Default                     : Yes
Forced                      : No

Audio
ID                          : 2
Format                      : AAC
Format/Info                 : Advanced Audio Codec
Format profile              : LC
Codec ID                    : A_AAC
Duration                    : 1 h 49 min
Bit rate                    : 198 kb/s
Channel(s)                  : 2 channels
Channel positions           : Front: L R
Sampling rate               : 48.0 kHz
Frame rate                  : 46.875 FPS (1024 SPF)
Compression mode            : Lossy
Stream size                 : 155 MiB (15%)
Language                    : Hindi
Default                     : Yes
Forced                      : No






SINGLE DIRECT FAST LINKS

http://www.heroupload.us/c7af15beaeeca811/MLA.Ka.Power.MLA.2018.Hindi.Dubbed.720p.HDTVRip.x264.AAC-MCR.mkv



http://filefloater.com/29Zl/MLA.Ka.Power.MLA.2018.Hindi.Dubbed.720p.HDTVRip.x264.AAC-MCR.mkv




Buy Premium From My Links & Support Me
шаблоны для dle 11.2