Kempirve (2017) Kannada - DTH UNTOUCHED - x264-Exclusive

Kempirve (2017) Kannada - DTH UNTOUCHED - x264-Exclusive





Format version              : Version 4 / Version 2
File size                   : 1.45 GiB
Duration                    : 1 h 55 min
Overall bit rate            : 1 807 kb/s
Encoded date                : UTC 2018-08-12 12:06:47
Writing application         : mkvmerge v7.8.0 ('River Man') 64bit built on Mar 27 2015 16:31:37
Writing library             : libebml v1.3.1 + libmatroska v1.4.2

Video
ID                          : 1
Format                      : AVC
Format/Info                 : Advanced Video Codec
Format profile              : [email protected]
Format settings, CABAC      : Yes
Format settings, RefFrames  : 4 frames
Codec ID                    : V_MPEG4/ISO/AVC
Duration                    : 1 h 55 min
Bit rate                    : 1 723 kb/s
Width                       : 720 pixels
Height                      : 576 pixels
Display aspect ratio        : 16:9
Frame rate mode             : Constant
Frame rate                  : 25.000 FPS
Standard                    : PAL
Color space                 : YUV
Chroma subsampling          : 4:2:0
Bit depth                   : 8 bits
Scan type                   : Progressive
Bits/(Pixel*Frame)          : 0.166
Stream size                 : 1.39 GiB (95%)
Default                     : Yes
Forced                      : No

Audio
ID                          : 2
Format                      : AAC
Format/Info                 : Advanced Audio Codec
Format profile              : LC
Codec ID                    : A_AAC
Duration                    : 1 h 55 min
Bit rate                    : 81.8 kb/s
Channel(s)                  : 2 channels
Channel positions           : Front: L R
Sampling rate               : 48.0 kHz
Frame rate                  : 46.875 FPS (1024 SPF)
Compression mode            : Lossy
Delay relative to video     : 21 ms
Stream size                 : 67.4 MiB (5%)
Default                     : Yes
Forced                      : No




SINGLE DIRECT FAST LINKS
http://www.heroupload.us/1fa35a701a5379ad/Kempirve.2017.Kannada.DTH.UNTOUCHED.x264-Exclusive.mkv


http://filefloater.com/1Kew/Kempirve.2017.Kannada.DTH.UNTOUCHED.x264-Exclusive.mkv



Buy Premium From My Links & Support Me
шаблоны для dle 11.2