Abrahaminte Santhathikal (2018) Malayalam - 720p - DVDRip - x264 - DD5.1 - ESubs-TMV

Abrahaminte Santhathikal (2018) Malayalam - 720p - DVDRip - x264 - DD5.1 - ESubs-TMV





Format                      : Matroska
Format version              : Version 4 / Version 2
File size                   : 1.45 GiB
Duration                    : 2 h 10 min
Overall bit rate            : 1 591 kb/s
Encoded date                : UTC 2018-09-24 08:59:57
Writing application         : mkvmerge v8.2.0 ('World of Adventure') 64bit
Writing library             : libebml v1.3.1 + libmatroska v1.4.2

Video
ID                          : 1
Format                      : AVC
Format/Info                 : Advanced Video Codec
Format profile              : [email protected]
Format settings, CABAC      : Yes
Format settings, RefFrames  : 4 frames
Codec ID                    : V_MPEG4/ISO/AVC
Duration                    : 2 h 10 min
Bit rate                    : 1 389 kb/s
Width                       : 1 280 pixels
Height                      : 544 pixels
Display aspect ratio        : 2.35:1
Frame rate mode             : Constant
Frame rate                  : 23.976 (24000/1001) FPS
Color space                 : YUV
Chroma subsampling          : 4:2:0
Bit depth                   : 8 bits
Scan type                   : Progressive
Bits/(Pixel*Frame)          : 0.083
Stream size                 : 1.25 GiB (86%)
Writing library             : x264 core 155 r2901 7d0ff22
Encoding settings           : cabac=1 / ref=2 / deblock=1:0:0 / analyse=0x3:0x113 / me=hex / subme=6 / psy=1 / psy_rd=1.00:0.00 / mixed_ref=1 / me_range=16 / chroma_me=1 / trellis=1 / 8x8dct=1 / cqm=0 / deadzone=21,11 / fast_pskip=1 / chroma_qp_offset=-2 / threads=12 / lookahead_threads=2 / sliced_threads=0 / nr=0 / decimate=1 / interlaced=0 / bluray_compat=0 / constrained_intra=0 / bframes=3 / b_pyramid=2 / b_adapt=1 / b_bias=0 / direct=1 / weightb=1 / open_gop=0 / weightp=1 / keyint=240 / keyint_min=24 / scenecut=40 / intra_refresh=0 / rc_lookahead=30 / rc=abr / mbtree=1 / bitrate=1389 / ratetol=1.0 / qcomp=0.60 / qpmin=0 / qpmax=69 / qpstep=4 / vbv_maxrate=25000 / vbv_bufsize=25000 / nal_hrd=none / filler=0 / ip_ratio=1.40 / aq=1:1.00
Language                    : Malayalam
Default                     : Yes
Forced                      : No
Color range                 : Limited
Color primaries             : BT.601 NTSC
Transfer characteristics    : BT.709
Matrix coefficients         : BT.601

Audio
ID                          : 2
Format                      : AC-3
Format/Info                 : Audio Coding 3
Format settings, Endianness : Big
Codec ID                    : A_AC3
Duration                    : 2 h 10 min
Bit rate mode               : Constant
Bit rate                    : 224 kb/s
Channel(s)                  : 6 channels
Channel positions           : Front: L C R, Side: L R, LFE
Sampling rate               : 48.0 kHz
Frame rate                  : 31.250 FPS (1536 SPF)
Bit depth                   : 16 bits
Compression mode            : Lossy
Stream size                 : 210 MiB (14%)
Language                    : Malayalam
Service kind                : Complete Main
Default                     : Yes
Forced                      : No

Text
ID                          : 3
Format                      : UTF-8
Codec ID                    : S_TEXT/UTF8
Codec ID/Info               : UTF-8 Plain Text
Duration                    : 2 h 8 min
Bit rate                    : 14 b/s
Count of elements           : 326
Stream size                 : 13.7 KiB (0%)
Language                    : English
Default                     : Yes
Forced                      : No





SINGLE DIRECT FAST LINKS
http://www.heroupload.us/2eed49e79691835f/Abrahaminte.Santhathikal.2018.Malayalam.Original.HQ.DVDRip.720p.x264.DD5.1.ESub-TMV.mkv



http://filefloater.com/1KR0/Abrahaminte.Santhathikal.2018.Malayalam.Original.HQ.DVDRip.720p.x264.DD5.1.ESub-TMV.mkv




Buy Premium From My Links & Support Me
шаблоны для dle 11.2