Panchavarnathatha (2018) Malayalam - 720p - DVDRip - x264 - DD5.1 - ESubs-MTR » WarezUsa
Panchavarnathatha (2018) Malayalam - 720p - DVDRip - x264 - DD5.1 - ESubs-MTR

Panchavarnathatha (2018) Malayalam - 720p - DVDRip - x264 - DD5.1 - ESubs-MTR





Format                      : Matroska
Format version              : Version 4 / Version 2
File size                   : 1.40 GiB
Duration                    : 2 h 26 min
Overall bit rate            : 1 369 kb/s
Encoded date                : UTC 2018-07-25 09:16:36
Writing application         : mkvmerge v20.0.0 ('I Am The Sun') 32-bit
Writing library             : libebml v1.3.5 + libmatroska v1.4.8

Video
ID                          : 1
Format                      : AVC
Format/Info                 : Advanced Video Codec
Format profile              : [email protected]
Format settings, CABAC      : Yes
Format settings, RefFrames  : 4 frames
Codec ID                    : V_MPEG4/ISO/AVC
Duration                    : 2 h 26 min
Bit rate                    : 1 256 kb/s
Width                       : 720 pixels
Height                      : 304 pixels
Display aspect ratio        : 2.35:1
Frame rate mode             : Variable
Frame rate                  : 23.976 FPS
Color space                 : YUV
Chroma subsampling          : 4:2:0
Bit depth                   : 8 bits
Scan type                   : Progressive
Bits/(Pixel*Frame)          : 0.239
Stream size                 : 1.29 GiB (92%)
Writing library             : x264 core 148 r2708 86b7198
Encoding settings           : cabac=1 / ref=2 / deblock=1:0:0 / analyse=0x1:0x111 / me=hex / subme=6 / psy=1 / psy_rd=1.00:0.00 / mixed_ref=1 / me_range=16 / chroma_me=1 / trellis=1 / 8x8dct=0 / cqm=0 / deadzone=21,11 / fast_pskip=1 / chroma_qp_offset=-2 / threads=6 / lookahead_threads=1 / sliced_threads=0 / nr=0 / decimate=1 / interlaced=0 / bluray_compat=0 / constrained_intra=0 / bframes=3 / b_pyramid=2 / b_adapt=1 / b_bias=0 / direct=1 / weightb=1 / open_gop=0 / weightp=1 / keyint=300 / keyint_min=30 / scenecut=40 / intra_refresh=0 / rc_lookahead=30 / rc=2pass / mbtree=1 / bitrate=1256 / ratetol=1.0 / qcomp=0.60 / qpmin=0 / qpmax=69 / qpstep=4 / cplxblur=20.0 / qblur=0.5 / vbv_maxrate=20000 / vbv_bufsize=25000 / nal_hrd=none / filler=0 / ip_ratio=1.40 / aq=1:1.00
Language                    : English
Default                     : Yes
Forced                      : No
Color range                 : Limited
Color primaries             : BT.601 NTSC
Transfer characteristics    : BT.709
Matrix coefficients         : BT.601

Audio
ID                          : 2
Format                      : AAC
Format/Info                 : Advanced Audio Codec
Format profile              : LC
Codec ID                    : A_AAC
Duration                    : 2 h 26 min
Bit rate                    : 111 kb/s
Channel(s)                  : 2 channels
Channel positions           : Front: L R
Sampling rate               : 48.0 kHz
Frame rate                  : 46.875 FPS (1024 SPF)
Compression mode            : Lossy
Delay relative to video     : -5 ms
Stream size                 : 117 MiB (8%)
Default                     : Yes
Forced                      : No

Text
ID                          : 3
Format                      : UTF-8
Codec ID                    : S_TEXT/UTF8
Codec ID/Info               : UTF-8 Plain Text
Duration                    : 2 h 21 min
Bit rate                    : 72 b/s
Count of elements           : 2162
Stream size                 : 74.8 KiB (0%)
Language                    : English
Default                     : No
Forced                      : No





SINGLE DIRECT FAST LINKS
http://www.heroupload.us/f8591162d143d67c/Panchavarnathatha.2018.Malayalam.Org.720p.DVDRip.x264.5.1.ESubs-MTR.mkv


http://filefloater.com/29Yd/Panchavarnathatha.2018.Malayalam.Org.720p.DVDRip.x264.5.1.ESubs-MTR.mkv




Buy Premium From My Links & Support Me
шаблоны для dle 11.2