Lucknow Central (2017) 720p - HD-DVDRip - x264 - AAC 5.1-Bollywooda2z

Lucknow Central (2017) 720p - HD-DVDRip - x264 - AAC 5.1-Bollywooda2z



Format                      : Matroska
Format version              : Version 4 / Version 2
File size                   : 1.21 GiB
Duration                    : 2 h 24 min
Overall bit rate            : 1 200 kb/s
Encoded date                : UTC 2017-12-14 14:53:58
Writing application         : mkvmerge v7.7.0 ('Six Voices') 64bit built on Feb 28 2015 23:39:33
Writing library             : libebml v1.3.1 + libmatroska v1.4.2

Video
ID                          : 1
Format                      : AVC
Format/Info                 : Advanced Video Codec
Format profile              : [email protected]
Format settings, CABAC      : Yes
Format settings, RefFrames  : 8 frames
Codec ID                    : V_MPEG4/ISO/AVC
Duration                    : 2 h 24 min
Bit rate                    : 1 011 kb/s
Width                       : 1 280 pixels
Height                      : 544 pixels
Display aspect ratio        : 2.35:1
Frame rate mode             : Constant
Frame rate                  : 24.000 FPS
Color space                 : YUV
Chroma subsampling          : 4:2:0
Bit depth                   : 8 bits
Scan type                   : Progressive
Bits/(Pixel*Frame)          : 0.060
Stream size                 : 1.02 GiB (84%)
Writing library             : x264 core 148 r2638 7599210
Encoding settings           : cabac=1 / ref=8 / deblock=1:-1:-1 / analyse=0x3:0x113 / me=hex / subme=7 / psy=1 / psy_rd=1.00:0.00 / mixed_ref=1 / me_range=16 / chroma_me=1 / trellis=1 / 8x8dct=1 / cqm=0 / deadzone=21,11 / fast_pskip=1 / chroma_qp_offset=-2 / threads=12 / lookahead_threads=2 / sliced_threads=0 / nr=0 / decimate=1 / interlaced=0 / bluray_compat=0 / constrained_intra=0 / bframes=3 / b_pyramid=2 / b_adapt=1 / b_bias=0 / direct=1 / weightb=1 / open_gop=0 / weightp=2 / keyint=240 / keyint_min=24 / scenecut=40 / intra_refresh=0 / rc_lookahead=40 / rc=2pass / mbtree=1 / bitrate=1011 / ratetol=1.0 / qcomp=0.60 / qpmin=10 / qpmax=69 / qpstep=4 / cplxblur=20.0 / qblur=0.5 / vbv_maxrate=62500 / vbv_bufsize=78125 / nal_hrd=none / filler=0 / ip_ratio=1.40 / aq=1:1.00
Default                     : Yes
Forced                      : No

Audio
ID                          : 2
Format                      : AAC
Format/Info                 : Advanced Audio Codec
Format profile              : HE-AAC / LC
Codec ID                    : A_AAC
Duration                    : 2 h 24 min
Bit rate                    : 188 kb/s
Channel(s)                  : 6 channels
Channel positions           : Front: L C R, Side: L R, LFE
Sampling rate               : 48.0 kHz / 24.0 kHz
Frame rate                  : 23.438 FPS (1024 SPF)
Compression mode            : Lossy
Delay relative to video     : 31 ms
Stream size                 : 194 MiB (16%)
Language                    : Hindi
Default                     : Yes
Forced                      : Yes

Text
ID                          : 3
Format                      : UTF-8
Codec ID                    : S_TEXT/UTF8
Codec ID/Info               : UTF-8 Plain Text
Duration                    : 2 h 22 min
Bit rate                    : 52 b/s
Count of elements           : 1746
Stream size                 : 54.8 KiB (0%)
Default                     : Yes
Forced                      : No




SINGLE DIRECT FAST LINKS

http://www.heroupload.us/a323eba1d0ff0471/Lucknow.Central.2017.mkv



http://filefloater.com/2APx/Lucknow.Central.2017.mkv


Buy Premium From My Links & Support Me
шаблоны для dle 11.2