Gurgaon (2017) 720p - HD-DVDRip - x264 - AAC-Bollywooda2z

Gurgaon (2017) 720p - HD-DVDRip - x264 - AAC-Bollywooda2z



Format                      : Matroska
Format version              : Version 4 / Version 2
File size                   : 850 MiB
Duration                    : 1 h 41 min
Overall bit rate            : 1 166 kb/s
Encoded date                : UTC 2018-04-22 12:56:59
Writing application         : mkvmerge v20.0.0 ('I Am The Sun') 64-bit
Writing library             : libebml v1.3.5 + libmatroska v1.4.8

Video
ID                          : 2
Format                      : AVC
Format/Info                 : Advanced Video Codec
Format profile              : [email protected]
Format settings, CABAC      : Yes
Format settings, RefFrames  : 8 frames
Codec ID                    : V_MPEG4/ISO/AVC
Duration                    : 1 h 41 min
Bit rate                    : 1 000 kb/s
Width                       : 1 280 pixels
Height                      : 536 pixels
Display aspect ratio        : 2.40:1
Frame rate mode             : Constant
Frame rate                  : 25.000 FPS
Color space                 : YUV
Chroma subsampling          : 4:2:0
Bit depth                   : 8 bits
Scan type                   : Progressive
Bits/(Pixel*Frame)          : 0.058
Stream size                 : 729 MiB (86%)
Writing library             : x264 core 142 r2479 dd79a61
Encoding settings           : cabac=1 / ref=8 / deblock=1:0:0 / analyse=0x1:0x131 / me=umh / subme=9 / psy=1 / psy_rd=1.00:0.00 / mixed_ref=1 / me_range=16 / chroma_me=1 / trellis=2 / 8x8dct=0 / cqm=0 / deadzone=21,11 / fast_pskip=1 / chroma_qp_offset=-2 / threads=24 / lookahead_threads=2 / sliced_threads=0 / nr=0 / decimate=1 / interlaced=0 / bluray_compat=0 / constrained_intra=0 / bframes=3 / b_pyramid=2 / b_adapt=2 / b_bias=0 / direct=3 / weightb=1 / open_gop=0 / weightp=2 / keyint=250 / keyint_min=25 / scenecut=40 / intra_refresh=0 / rc_lookahead=60 / rc=2pass / mbtree=1 / bitrate=1000 / ratetol=1.0 / qcomp=0.60 / qpmin=0 / qpmax=69 / qpstep=4 / cplxblur=20.0 / qblur=0.5 / vbv_maxrate=20000 / vbv_bufsize=25000 / nal_hrd=none / filler=0 / ip_ratio=1.40 / aq=1:1.00
Language                    : Hindi
Default                     : Yes
Forced                      : No
Color range                 : Limited
Color primaries             : BT.709
Transfer characteristics    : BT.709
Matrix coefficients         : BT.709

Audio
ID                          : 3
Format                      : AAC
Format/Info                 : Advanced Audio Codec
Format profile              : LC
Codec ID                    : A_AAC
Duration                    : 1 h 41 min
Bit rate                    : 164 kb/s
Channel(s)                  : 2 channels
Channel positions           : Front: L R
Sampling rate               : 48.0 kHz
Frame rate                  : 46.875 FPS (1024 SPF)
Compression mode            : Lossy
Delay relative to video     : -21 ms
Stream size                 : 119 MiB (14%)
Language                    : Hindi
Default                     : Yes
Forced                      : No

Text
ID                          : 1
Format                      : UTF-8
Codec ID                    : S_TEXT/UTF8
Codec ID/Info               : UTF-8 Plain Text
Duration                    : 10 s 0 ms
Bit rate                    : 268 b/s
Count of elements           : 4
Stream size                 : 335 Bytes (0%)
Language                    : Hindi
Default                     : Yes
Forced                      : No




SINGLE DIRECT FAST LINKS

http://www.heroupload.us/ed4284f441b0227a/Gurgaon.2017.mkv



http://filefloater.com/2APr/Gurgaon.2017.mkv


Buy Premium From My Links & Support Me
шаблоны для dle 11.2